#TITLE:I Love;
#SUBTITLE:(Orange Things);
#ARTIST:Flexe;
#TITLETRANSLIT:;
#SUBTITLETRANSLIT:;
#ARTISTTRANSLIT:;
#CREDIT:;
#BANNER:orange.png;
#BACKGROUND:orange-bg.png;
#LYRICSPATH:;
#CDTITLE:feelulol.PNG;
#MUSIC:orange.mp3;
#OFFSET:-0.020;
#SAMPLESTART:30.000;
#SAMPLELENGTH:15.000;
#SELECTABLE:YES;
#BPMS:0.000=200.000,222.500=100.000,223.500=200.000,229.500=100.000,231.000=200.000,236.000=150.000,236.500=100.000,237.250=200.000,249.000=100.000,253.000=195.500,263.500=149.999,264.500=202.999,284.000=399.997,340.000=199.999,368.000=200.098;
#STOPS:188.000=0.120
,189.000=0.120
,190.000=0.140
,296.500=0.040
,296.750=0.040
,297.000=0.040
,297.250=0.040
;
#BGCHANGES:;
// cache tags:
#FIRSTBEAT:0.000;
#LASTBEAT:476.000;
#SONGFILENAME:Songs/Music V.I.P ^_^/I Love (Orange Things) [iPatch]/orange.sm;
#HASMUSIC:1;
#HASBANNER:1;
#MUSICLENGTH:142.889;
// end cache tags

//---------------dance-single - ----------------
#NOTES:
     dance-single:
     :
     Hard:
     11:
     0.947,1.000,0.987,0.525,0.399,731.000,141.000,75.000,0.000,31.000:  // measure 1
1000
0000
0001
0000
,  // measure 2
1000
0000
0000
0000
,  // measure 3
0010
0000
1000
0000
,  // measure 4
0100
0000
0000
0000
,  // measure 5
0001
0000
0100
0000
,  // measure 6
0010
0000
0000
0000
,  // measure 7
1000
0000
0001
0000
,  // measure 8
0100
0000
0000
0000
,  // measure 9
1000
0001
0010
0100
,  // measure 10
0001
0100
0000
0000
,  // measure 11
0100
1000
0001
0100
,  // measure 12
0010
1000
0000
0000
,  // measure 13
1001
0000
1000
0000
0001
0010
0100
2000
,  // measure 14
0000
3000
1001
0000
,  // measure 15
1100
0010
0001
1000
0100
0010
1000
0100
,  // measure 16
0010
0001
0010
0100
1010
0100
0000
0000
,  // measure 17
1100
0000
1000
0000
0100
1000
0010
1000
,  // measure 18
0100
0000
0000
0000
1000
0000
0010
0000
1000
0001
1000
0100
0010
0001
0010
0100
,  // measure 19
1000
0100
0010
0001
1000
0100
0010
0001
1000
0100
0010
0001
1000
0010
0100
0001
,  // measure 20
2000
0000
0000
0000
0000
0000
0000
3000
,  // measure 21
0001
0000
0010
0000
0100
0000
1000
0000
0100
0000
1000
0000
0100
0000
0000
0100
,  // measure 22
0000
0000
0000
0000
0100
0000
0000
0000
0000
0200
0000
0000
0000
0000
0000
0000
0000
0000
0000
0000
0000
0000
0000
0000
0300
0000
0000
0000
0000
0000
0000
0000
0002
0000
0000
0000
0000
0000
0000
0000
2003
0000
0000
0000
3000
0000
0000
0000
,  // measure 23
0001
0010
0100
1000
0010
0100
0001
1000
0100
0010
0001
0010
0100
1000
0100
0010
,  // measure 24
0001
0010
0100
1000
0100
1000
0100
0010
0001
0010
0001
0010
0100
0000
0000
0000
,  // measure 25
1100
0001
0101
1000
,  // measure 26
1100
0010
0110
0010
,  // measure 27
1010
0000
0101
1000
0100
0000
0000
0000
,  // measure 28
1000
0000
0000
0100
0000
0000
0000
0000
0000
0001
0000
0000
0010
0000
0000
0000
0100
0000
0000
0000
0100
0000
0000
0000
,  // measure 29
1100
0000
0011
1002
,  // measure 30
2103
3002
2103
3200
,  // measure 31
1320
0032
2013
3002
,  // measure 32
2103
3002
2103
3200
,  // measure 33
1320
0032
1023
0230
,  // measure 34
1320
0230
1302
2003
,  // measure 35
3102
2003
3201
0320
,  // measure 36
0132
2003
3012
2003
,  // measure 37
3120
0230
2301
3200
,  // measure 38
2310
3020
1230
0320
,  // measure 39
1032
0023
0231
2300
,  // measure 40
3102
0203
2310
3020
,  // measure 41
0231
0302
1023
2030
,  // measure 42
3012
0203
2310
3002
,  // measure 43
1023
0230
2301
3200
,  // measure 44
0312
0023
0231
2310
,  // measure 45
3000
0000
0000
1010
,  // measure 46
0101
0000
0000
0000
,  // measure 47
1001
0000
0000
0000
,  // measure 48
0101
0000
0000
0000
1100
0000
0000
0000
1001
0000
0010
0000
0001
0010
0100
0000
,  // measure 49
1000
0100
0010
0001
0000
0001
1000
0100
,  // measure 50
1000
0010
1000
0001
0010
0100
0001
0010
,  // measure 51
0100
0000
1000
0000
0100
0000
0010
0000
0001
0000
0010
0000
0100
0010
0001
0000
,  // measure 52
0010
0000
0100
1000
0001
0010
0100
1000
0001
0010
0100
1000
0010
1000
0001
0000
,  // measure 53
0010
0100
0010
0001
0000
0100
1000
0100
,  // measure 54
0010
0100
0001
0100
0010
1000
0100
0001
,  // measure 55
0100
0000
1000
0000
0010
0000
0100
0000
0001
0000
1000
0000
0100
0010
0001
0000
,  // measure 56
0010
0000
1000
0100
1000
0100
0010
0001
0100
0010
1000
0000
0000
0000
1001
0000
,  // measure 57
0100
0010
0000
0010
0100
1000
0010
0100
,  // measure 58
0010
0000
0000
0000
0000
0000
1001
0010
0100
1000
0100
0010
0001
0000
0010
0000
,  // measure 59
0100
0000
0010
0001
0100
0000
0100
0001
0010
0000
0000
0000
0110
0000
0000
0000
,  // measure 60
0001
0010
0100
0010
0000
1001
0000
0000
2000
0000
0000
0000
3002
0000
0010
0000
,  // measure 61
1003
0100
0010
0001
0100
0010
0002
1000
,  // measure 62
0100
0000
0000
0000
0000
0000
0000
0000
0010
0000
0000
0000
0000
0000
0000
0000
0100
0000
0000
0000
0000
0000
0000
0000
1000
0000
0000
0000
0000
0000
0000
0000
0000
0000
0000
0000
0100
0000
0000
0000
0000
0000
0000
0100
0000
0000
0000
0000
2003
0000
0000
0000
0000
0000
0000
0000
0001
0000
0000
0000
0001
0000
0000
0000
,  // measure 63
3001
0010
0100
0001
1000
0001
1000
0001
,  // measure 64
0000
0010
0000
0000
0000
1000
0000
0000
0101
0000
0000
0000
0010
0000
0100
0000
1000
0000
0000
0000
0000
0000
0000
0000
1010
0000
0000
0000
0100
0000
0010
0000
,  // measure 65
0001
0000
0000
0000
1001
0100
0010
0100
0001
0010
0100
1000
0100
0010
0001
0010
,  // measure 66
0100
1000
0100
0010
0001
0000
2001
0000
0100
0000
3001
0000
2002
0000
0000
0000
,  // measure 67
0000
3003
0000
1000
0100
0010
0001
0000
0010
0000
0100
0000
1000
0000
0100
0000
,  // measure 68
1000
0000
0000
0000
0010
0000
0000
0000
0000
0001
0010
0100
1000
0000
0000
0000
1000
0000
0001
0000
0100
0000
0000
0000
0010
0000
0000
0000
1000
0000
0000
0000
,  // measure 69
1001
0010
0100
0010
1010
0100
0101
1010
,  // measure 70
0110
1000
0110
0001
1010
0100
1100
0010
,  // measure 71
0101
1010
0110
1100
0110
0011
0110
1100
,  // measure 72
0011
0010
0100
1000
0100
1000
0100
1000
,  // measure 73
0100
0010
0001
0100
0010
1000
0010
0100
,  // measure 74
0001
1000
0100
0010
0001
0010
0100
0000
,  // measure 75
0000
0000
0001
1000
0001
1000
0000
0000
0000
0000
0000
0000
1000
0000
0000
0000
,  // measure 76
0100
0010
1000
0100
,  // measure 77
0001
0000
0010
0000
0010
0000
0000
0100
,  // measure 78
0000
0000
0000
0001
0000
0000
0000
0000
0000
0000
0000
0000
0000
0000
0000
0000
,  // measure 79
1000
0100
0010
0001
0010
0100
1000
0100
,  // measure 80
0010
0100
1000
0100
0010
0001
0010
0100
,  // measure 81
1000
0100
0010
0100
1000
0010
0100
0001
,  // measure 82
1000
0100
0010
0001
0100
0010
0100
1000
,  // measure 83
0010
0100
0001
0010
0100
0001
1000
0100
,  // measure 84
0010
0001
0100
0010
1000
0100
0010
0001
,  // measure 85
0010
0100
1000
0001
0020
0000
0000
0000
,  // measure 86
0030
1100
0101
0110
,  // measure 87
1010
0000
0000
0000
0000
0000
0000
0000
0101
0000
0000
0000
0000
0000
0000
0000
0110
0000
0000
0000
0000
0000
0000
0000
1001
0000
0000
0000
0000
0100
0000
0000
,  // measure 88
1100
0101
1010
0101
,  // measure 89
0101
0000
0000
0000
0000
0000
0000
0000
1010
0000
0000
0000
0000
0000
0000
0000
0101
0000
0000
0000
0000
0000
0000
0000
0110
0000
0000
0000
0000
1000
0000
0000
,  // measure 90
1010
0011
0110
0011
,  // measure 91
0011
0000
0000
0000
0000
0000
0000
0000
1010
0000
0000
0000
0000
0000
0000
0000
0101
0000
0000
0000
0000
0000
0000
0000
0110
0000
0000
0000
0000
0010
0000
0000
,  // measure 92
1001
1010
0101
0110
,  // measure 93
1100
0000
0000
0000
0000
0000
0000
0000
0011
0000
0000
0000
0000
0000
0000
0000
1100
0000
0000
0000
0000
0000
0000
0000
0110
0000
0000
0000
0000
0100
0000
0000
,  // measure 94
1100
1100
0011
0101
,  // measure 95
0110
0000
0000
0000
0000
0000
0000
0000
0011
0000
0000
0000
0000
0000
0000
0000
1100
0000
0000
0000
0000
0000
0000
0000
1010
0000
0000
0000
0000
0100
0000
0000
,  // measure 96
0101
0110
1100
0101
,  // measure 97
0110
0000
0000
0000
0000
0000
0000
0000
1100
0000
0000
0000
0000
0000
0000
0000
1001
0000
0000
0000
0000
0000
0000
0000
1001
0000
0000
0000
0000
0010
0000
0000
,  // measure 98
1010
0101
1010
1100
,  // measure 99
0110
0000
0000
0000
0000
0000
0000
0000
1100
0000
0000
0000
0000
0000
0000
0000
0011
0000
0000
0000
0000
0000
0000
0000
0110
0000
0000
0000
0000
0010
0000
0000
,  // measure 100
1100
0101
1100
0110
,  // measure 101
1001
0011
1100
0101
,  // measure 102
1100
0000
0001
0010
0100
0000
1000
0000
0100
0000
0010
0000
0001
0000
0000
0000
,  // measure 103
0100
1000
0010
0100
0010
0001
1000
0100
,  // measure 104
0010
0001
0100
0010
1000
0001
0100
0010
,  // measure 105
1000
0000
0010
1000
0100
0000
0001
0000
0100
1000
0100
0010
0001
0010
0100
0000
,  // measure 106
0100
0000
0001
0010
0100
0000
1000
0000
0100
0000
1000
0000
0100
0000
0000
0000
,  // measure 107
0001
0010
1000
0010
0001
0010
0001
0100
,  // measure 108
0010
0100
1000
0100
1000
0010
0001
0100
,  // measure 109
0010
0000
0001
1000
0010
0000
0100
0000
1000
0100
0010
0001
1000
0100
0010
0001
,  // measure 110
1000
0000
0001
0010
0100
0000
1000
0000
0010
0000
0100
0000
0001
0000
0000
0000
,  // measure 111
0010
0100
1000
0100
0010
0001
0010
0100
,  // measure 112
0010
0100
0001
0010
0100
1000
0100
0001
,  // measure 113
0010
0000
0100
0000
0010
0000
0001
0000
0001
0010
0001
0010
0100
1000
0100
1000
,  // measure 114
0100
0010
1000
0001
0100
0000
0010
0000
0001
0000
0010
0000
0100
0000
0000
0000
,  // measure 115
0100
0010
0100
0001
1000
0010
0100
0001
,  // measure 116
0010
0100
1000
0100
0010
0001
0100
0010
,  // measure 117
1000
0000
0100
0001
0010
0000
0001
0000
1000
0010
0100
0001
1000
0100
0010
0001
,  // measure 118
1000
0000
0000
0001
0000
0000
0000
0000
0000
1000
0000
0000
0000
0000
0001
0000
0000
0000
0000
0000
1000
0000
0000
0000
0000
0001
0000
0000
0000
0000
1000
0000
,  // measure 119
0000
0000
0000
0000
0001
0000
0000
0000
0000
2000
0000
0000
0000
0000
0000
0000
0000
0000
0000
0000
0000
0000
0000
0000
0000
0000
0000
0000
0000
0000
0000
0000
,  // measure 120
3000
0000
0000
0000
;
